Search in ebookee.net!

Book.Club.2018.720p.WEB-DL.X264.READINFO.With.Sample.LLG



The poster (email) is not available. 收藏推荐: Bookmark this: Book Club 2018 720p WEB DL X264 READINFO With Sample LLG

图书介绍


Pay Attention = CAM AUDIO

Complete name : Book.Club.2018.720p.WEB-DL.X264.READINFO.With.Sample.LLG.mp4
Format : MPEG-4
Format profile : Base Media
Codec ID : isom (isom/iso2/avc1/mp41)
File size : 988 MiB
Duration : 1 h 43 min
Overall bit rate : 1 328 kb/s

Video
ID : 1
Format : AVC
Format/Info : Advanced Video Codec
Format profile : High@L3.1
Format settings : CABAC / 4 Ref Frames
Format settings, CABAC : Yes
Format settings, RefFrames : 4 frames
Codec ID : avc1
Codec ID/Info : Advanced Video Coding
Duration : 1 h 43 min
Bit rate : 1 200 kb/s
Width : 1 280 pixels
Height : 566 pixels
Display aspect ratio : 2.25:1
Frame rate mode : Constant
Frame rate : 29.970 (29970/1000) FPS
Color space : YUV
Chroma subsampling : 4:2:0
Bit depth : 8 bits
Scan type : Progressive
Bits/(Pixel*Frame) : 0.055
Stream size : 889 MiB (90%)

Audio
ID : 2
Format : AC-3
Format/Info : Audio Coding 3
Codec ID : ac-3
Duration : 1 h 43 min
Bit rate mode : Constant
Bit rate : 128 kb/s
Channel(s) : 2 channels
Channel positions : Front: L R
Sampling rate : 48.0 kHz
Frame rate : 31.250 FPS (1536 SPF)
Bit depth : 16 bits
Compression mode : Lossy
Stream size : 95.2 MiB (10%)
Service kind : Complete Main


Download
http://usersdrive.com/u1b7kgrbvjxd.html

[Directly Download] Book.Club.2018.720p.WEB-DL.X264.READINFO.With.Sample.LLG!


Download this book
DOWNLOAD Free download ezdownloader, then you can free download.

Download "Book.Club.2018.720p.WEB-DL.X264.READINFO.With.Sample.LLG"

使用ezdownloader下载
DOWNLOAD


Copyright Disclaimer:
本站一切内容源于互联网搜索,禁止商用! 如有任何不妥请联系:admin@ebookee.com,我们将在24小时内删除相关内容。

浏览量:0 添加时间:2018-07-24 15:51:35, 更新时间:2018-07-24 15:51:35, shared by phaelx

搜索该书!...


Search mirrors of "Book.Club.2018.720p.WEB-DL.X264.READINFO.With.Sample.LLG"...

Search in ebookee.com!

下载链接


Free Magazine Subscriptions & Technical Document Downloads

推荐:使用EZdownloader下载电子书


没有下载链接
请在图书介绍里查找下载链接,如果没有,可以试着搜索有无其它该书信息。

不能下载?
如果不能下载或者在“图书介绍”中找不到 "Book.Club.2018.720p.WEB-DL.X264.READINFO.With.Sample.LLG" 的下载链接请留言。下次访问本站时察看 所有留言 看是否有人已经更新了该书。

该书可能有其它下载链接,请点 这里查询相关图书


相关链接


"Book.Club.2018.720p.WEB-DL.X264.READINFO.With.Sample.LLG" 相关链接:


Comments


"Book.Club.2018.720p.WEB-DL.X264.READINFO.With.Sample.LLG" 没有评论.

    Leave a Comment

    如果没有下载链接或者下载链接无效,请查看相关链接或者搜索相关资料。

    required

    required

    email addresses

    required

    Not clear? Click to refresh.


    1. 艺术设计
    2. 有声读物
    3. 语言文化
    4. 家庭生活
    5. 法律
    6. 音乐歌词
    7. 软件相关
    8. BT种子
    9. 其它图书
    10. 所有留言
    11. 留言评论
    12. Download Thousands of Books two weeks for FREE!
    13. Download millions of Usenet resources!
    14. 海淀驾校
    Back to Top